#TITLE:MAXIMIZER;
#SUBTITLE:~Ganos re-edit~;
#ARTIST:Cli-Max S.;
#TITLETRANSLIT:;
#SUBTITLETRANSLIT:;
#ARTISTTRANSLIT:;
#CREDIT:;
#BANNER:MAXMIZER.png;
#BACKGROUND:MAXMIZER-BG.png;
#LYRICSPATH:;
#CDTITLE:GanosCD.png;
#MUSIC:MAXIMIZER.mp3;
#OFFSET:-1.300;
#SAMPLESTART:6.679;
#SAMPLELENGTH:12.000;
#SELECTABLE:YES;
#DISPLAYBPM:190.000;
#BPMS:0.000=190.000,16.000=95.000,17.000=190.000,55.000=95.000,56.000=190.000,143.000=95.000,145.000=190.000,173.000=95.000,175.000=190.000,205.000=95.000,215.000=190.000;
#STOPS:;
#BGCHANGES:;
// cache tags:
#FIRSTBEAT:0.000;
#LASTBEAT:280.063;
#SONGFILENAME:Songs/Chilean Keyboard Megapack 3/(Ganos) Maximizer/MAXIMIZER.sm;
#HASMUSIC:1;
#HASBANNER:1;
#MUSICLENGTH:97.941;
// end cache tags

//---------------dance-single - ----------------
#NOTES:
     dance-single:
     :
     Challenge:
     12:
     1.000,1.000,1.000,0.082,0.546,577.000,261.000,8.000,0.000,17.000:
1001
0000
0000
0000
1100
0000
0000
0000
0011
0000
0000
0000
0001
0100
0001
0000
,
1100
0000
0000
0000
1001
0000
0000
0000
0110
0000
0000
0001
1100
0000
1000
0000
,
0110
0000
0010
0000
0011
0000
0001
0000
0101
0000
0100
0000
0110
1000
0001
0000
,
1001
0010
1001
0010
1001
0010
1001
0010
,
1101
0110
1001
1000
0110
0011
0100
1010
,
0001
0110
1000
0101
0010
1100
0110
0011
,
0110
1100
0011
0001
1100
0110
0001
1100
,
0010
0101
1000
0101
0010
0101
0110
1010
,
0110
0101
1010
1000
0110
1001
0010
0101
,
1000
0110
0001
1100
0001
0110
1100
0101
,
1100
0110
0101
0001
1010
1010
0100
0011
,
0100
1010
0001
0110
0100
1001
1100
1001
,
0101
0000
1001
0000
0110
0000
0000
0000
0110
0000
0000
0000
0110
0110
0110
0110
,
0110
0000
0000
0000
0000
0000
0000
0000
1001
0000
0000
0000
0000
0000
0000
0000
1001
0000
0000
0000
0000
0000
0000
0000
1000
1000
1000
1000
1000
0000
0000
0000
,
1011
0000
0000
0000
1000
0000
0001
0010
0001
0010
0000
0010
0100
0000
0100
1000
,
0010
0000
0000
0000
0010
0000
1000
0001
1000
0001
0000
0001
0100
0000
0100
0010
,
1000
0000
0000
0000
0001
0000
1000
0010
1000
0010
0000
0010
0100
0000
0100
0001
,
0010
0000
0000
0000
1000
0000
0100
1000
0100
1000
0000
1000
0001
0000
0001
0100
,
0010
0000
0000
0000
0010
0000
1000
0010
1000
0010
0000
0010
0100
0000
0100
0001
,
0020
0000
0032
0000
,
0000
0000
0000
0000
0113
0000
0011
0000
1000
0000
0110
0000
0001
0000
1100
0010
,
1100
0000
1100
0000
0001
0000
1010
0000
0001
0000
1100
0000
0010
0000
0101
1000
,
0101
0000
0101
0000
0010
0000
1100
0000
0001
0000
0110
0000
0001
0000
1010
0100
,
1010
1010
0100
0011
1000
0110
1000
0001
,
0111
0000
0001
0000
1000
0000
0110
0000
0001
0000
1100
0001
1100
0000
1100
0000
,
0010
0000
0101
0000
1000
0000
0110
0000
1000
0000
0011
0100
0011
0000
0011
0000
,
1000
0000
0011
0000
1000
0000
0110
0000
1000
0000
0101
0010
0101
0000
0101
0000
,
0010
1001
0010
1001
0100
0011
2000
0000
,
3011
0100
0011
0100
0011
0100
0011
1000
,
0101
0010
0101
0010
0101
0010
0101
0110
,
1100
0001
1100
0001
1100
0001
1100
0010
,
1001
0100
1001
0100
1001
0100
1011
0000
,
0000
0011
0000
0001
0010
0001
1110
0001
,
0000
1010
0000
0010
1000
0001
0111
1000
,
0011
0110
1100
0110
0001
1000
0000
0001
,
0000
0001
0000
0001
2000
0000
3000
0000
,
2000
3002
0000
0000
1103
0000
0000
0000
0011
0000
0001
1000
0001
0100
0000
0100
,
0010
0000
0010
1000
0001
0000
0000
0000
1010
0000
1000
0001
1000
0100
0000
0100
,
0010
0000
0001
0010
0100
0000
0000
0000
1010
0000
0100
0001
0100
0010
0000
0010
,
1000
0000
0100
0010
0001
0000
0000
0000
0011
0000
1000
0100
0011
0000
0011
0000
,
0110
0000
0110
0000
0110
0000
0000
0000
1100
0000
0001
0010
0100
0010
0000
0010
,
0001
0000
0001
0100
1010
0000
0000
0000
1001
0000
0100
0001
0100
0010
0000
0010
,
1000
0000
0100
0010
1001
0000
1001
0000
0011
0000
0011
0000
1100
0000
1100
0000
,
0110
0110
1110
0111
1101
1011
1111
0000
,
1001
1001
0000
0011
0000
1010
0000
1010
,
0000
1010
0000
1100
1100
1100
0110
0000
,
0110
0000
0000
0101
0000
0101
0000
0101
,
0000
0101
0000
0101
0110
0000
0110
0110
,
0000
1100
0000
1001
0000
1001
0000
1001
,
0000
1001
1001
1001
0110
0000
0110
0000
,
0000
1010
0000
1010
0000
1010
0000
1010
,
0000
0000
1010
0000
0110
0000
0001
1000
0000
1000
0000
0010
0000
0010
0000
0010
,
0000
0000
0010
0000
0010
0000
0010
0000
1010
0000
0000
0000
0010
0000
0000
0000
0000
0000
0010
0000
0000
0000
0010
0000
0100
1000
0100
0000
0010
0000
0001
0010
,
0000
0000
0000
0000
0000
0000
0100
0000
0000
0000
0000
0000
1000
0000
0000
0000
0000
0000
0100
0000
0000
0000
0000
0000
0010
0000
0000
0000
0000
0000
0000
0000
0000
0000
0000
0000
1001
0000
0000
0000
0000
0000
0000
0000
0000
0000
0000
0000
0011
0000
0000
0000
0000
0000
0000
0000
0011
0000
0000
0000
0000
0000
0000
0000
1100
0000
0000
0000
0000
0000
0000
0000
1100
0000
0000
0000
0000
0000
0000
0000
0110
0000
0000
0000
0000
0000
0000
0000
0110
0000
0000
0000
0000
0000
0000
0000
1001
0000
0000
0000
0000
0000
0000
0000
1001
0000
0000
0000
0000
0000
0000
0000
0110
0000
0000
0000
0000
0000
0000
0000
0110
0000
0000
0000
0000
0000
0000
0000
1010
0000
0000
0000
0000
0000
0000
0000
1010
0000
0000
0000
0000
0000
0000
0000
0101
0000
0000
0000
0000
0000
0000
0000
0000
0000
0000
0000
0000
0000
0000
0000
0000
0000
0000
0000
0000
0000
0000
0000
0101
0000
0000
0000
0000
0000
0000
0000
0000
0000
0000
0000
0000
0000
0000
0000
0000
0000
0000
0000
0000
0000
0000
0000
,
0010
1100
0010
1100
0001
0101
1000
0101
,
1000
0110
0001
0110
1100
0011
0100
0011
,
0100
0011
1000
0011
0100
1010
0100
1010
,
0001
0000
0110
0000
0001
0000
1100
0001
1000
0001
1000
0001
1000
0000
0001
0000
,
1000
0000
0010
0100
0010
0000
1000
0000
0001
0000
0010
0100
0010
0000
0001
0000
,
1000
0000
0010
0100
0010
0000
1000
0000
0001
0000
1010
0000
0100
0000
1010
0000
,
0001
0110
0001
0110
1000
0110
0111
0000
,
0000
0000
1110
0000
0000
0000
0010
0100
1001
0000
1001
0000
1111
0000
0011
0000
,
0100
0011
1000
0110
0001
0110
0001
1010
,
0100
1010
0001
0110
0101
0110
0001
1100
,
0001
1100
0001
0110
1000
0110
1000
0101
,
1000
0101
0010
1100
0010
1100
0010
0101
,
0010
0000
1100
0010
0001
0000
1100
0000
0001
0000
0110
1000
0001
0000
0110
0000
,
0001
0000
1100
0010
0001
0000
1000
0000
0110
0000
0011
0000
1001
0010
0100
1000
,
0010
0100
0001
0100
0010
1000
0001
0010
0100
1000
0001
0010
0100
0010
0001
0100
,
1000
0100
0001
0010
0100
1000
0010
0100
0001
1000
0001
1000
0110
0000
0000
0000
,
2002
3003
0000
0000
0000
0000
0000
0000
0000
0000
0000
0000
0000
0000
0000
0000
0000
0000
0000
0000
0000
0000
0000
0000
0000
0000
0000
0000
0000
0000
0000
0000
0000
0000
0000
0000
0000
0000
0000
0000
0000
0000
0000
0000
0000
0000
0000
0000
0000
0000
0000
0000
0000
0000
0000
0000
0000
0000
0000
0000
0000
0000
0000
0000
;
